<?xml version="1.0" standalone="no"?>
<!DOCTYPE svg PUBLIC "-//W3C//DTD SVG 1.1//EN" "http://www.w3.org/Graphics/SVG/1.1/DTD/svg11.dtd" >
<svg xmlns="http://www.w3.org/2000/svg">
<metadata>Generated by IcoMoon</metadata>
<defs>
<font id="icomoon" horiz-adv-x="1024">
<font-face units-per-em="1024" ascent="960" descent="-64" />
<missing-glyph horiz-adv-x="1024" />
<glyph unicode="&#x20;" horiz-adv-x="512" d="" />
<glyph unicode="&#xe900;" d="M682.668 960h-682.668v-1024h1024v1024z" />
<glyph unicode="&#xe901;" d="M0 960h341.326v-1024h-341.326v1024z" />
<glyph unicode="&#xe902;" d="M682.674 960h341.326v-1024h-341.326v1024z" />
<glyph unicode="&#xe903;" d="M0 960h1024v-1024h-1024v1024z" />
<glyph unicode="&#xe904;" d="M512 748.522l15.986-49.196h51.724l-41.848-30.404 15.986-49.194-41.848 30.402-41.848-30.402 15.986 49.194-41.848 30.404h51.724z" />
<glyph unicode="&#xe905;" d="M299.498 660.5l46.090-23.48 36.578 36.572-8.094-51.090 46.090-23.482-51.090-8.092-8.092-51.090-23.486 46.090-51.086-8.094 36.574 36.578z" />
<glyph unicode="&#xe906;" d="M211.478 448l49.194 15.986 0.002 51.724 30.404-41.848 49.194 15.986-30.402-41.848 30.402-41.848-49.194 15.984-30.404-41.846v51.724z" />
<glyph unicode="&#xe907;" d="M299.498 235.498l23.482 46.090-36.572 36.578 51.090-8.094 23.48 46.088 8.094-51.088 51.088-8.092-46.086-23.486 8.092-51.088-36.578 36.576z" />
<glyph unicode="&#xe908;" d="M512 147.478l-15.986 49.194-51.724 0.002 41.848 30.404-15.986 49.192 41.848-30.4 41.848 30.4-15.986-49.192 41.848-30.404h-51.726z" />
<glyph unicode="&#xe909;" d="M724.5 235.498l-46.088 23.482-36.578-36.574 8.094 51.092-46.088 23.48 51.088 8.094 8.094 51.088 23.48-46.088 51.090 8.094-36.574-36.58z" />
<glyph unicode="&#xe90a;" d="M812.522 448l-49.196-15.986v-51.724l-30.404 41.848-49.192-15.986 30.4 41.848-30.4 41.848 49.194-15.986 30.402 41.848v-51.726z" />
<glyph unicode="&#xe90b;" d="M724.5 660.5l-23.48-46.088 36.574-36.578-51.092 8.094-23.48-46.088-8.094 51.088-51.088 8.094 46.088 23.48-8.094 51.088 36.58-36.572z" />
<glyph unicode="&#xe90c;" d="M0 959.988h1024v-1023.978h-1024v1023.978z" />
<glyph unicode="&#xe90d;" d="M0 960h1024v-341.326h-1024v341.326z" />
<glyph unicode="&#xe90e;" d="M0 277.326h1024v-341.326h-1024v341.326z" />
<glyph unicode="&#xe90f;" d="M0 960h1024v-1024h-1024v1024z" />
<glyph unicode="&#xe910;" d="M0 960h1024v-341.326h-1024v341.326z" />
<glyph unicode="&#xe911;" d="M0 277.326h1024v-341.326h-1024v341.326z" />
<glyph unicode="&#xe912;" d="M0 959.988h1024v-1023.978h-1024v1023.978z" />
<glyph unicode="&#xe913;" d="M0 960h341.326v-1024h-341.326v1024z" />
<glyph unicode="&#xe914;" d="M682.674 960h341.326v-1024h-341.326v1024z" />
<glyph unicode="&#xe915;" d="M0 960h1024v-1024h-1024v1024z" />
<glyph unicode="&#xe916;" d="M0 960h1024v-341.326h-1024v341.326z" />
<glyph unicode="&#xe917;" d="M0 277.326h1024v-341.326h-1024v341.326z" />
<glyph unicode="&#xe918;" d="M0 960h1024v-1024h-1024v1024z" />
<glyph unicode="&#xe919;" d="M0 960h341.326v-1024h-341.326v1024z" />
<glyph unicode="&#xe91a;" d="M682.674 960h341.326v-1024h-341.326v1024z" />
<glyph unicode="&#xe91b;" d="M0 960v-1024h1024v1024z" />
<glyph unicode="&#xe91c;" d="M781.174 524.36h-205.63l-63.544 195.564-63.544-195.564h-205.63l166.36-120.868-63.546-195.568 166.36 120.866 166.36-120.868-63.546 195.568 166.36 120.87zM455.744 418.62l21.488 66.13h69.534l21.488-66.132-56.254-40.868-56.256 40.87zM533.898 524.36h-43.796l21.898 67.396 21.898-67.396zM601.946 443.098l-13.534 41.652h70.866l-57.332-41.652zM435.588 484.752l-13.534-41.652-57.33 41.652h70.864zM420.978 311.616l21.898 67.394 35.432-25.742-57.33-41.652zM545.692 353.268l35.432 25.742 21.898-67.394-57.33 41.652z" />
<glyph unicode="&#xe91d;" d="M0 960h1024v-1024h-1024v1024z" />
<glyph unicode="&#xe91e;" d="M0 448h1024v-512h-1024v512z" />
<glyph unicode="&#xe91f;" d="M0 959.988h1024v-1023.978h-1024v1023.978z" />
<glyph unicode="&#xe920;" d="M0 960h1024v-341.326h-1024v341.326z" />
<glyph unicode="&#xe921;" d="M0 277.326h1024v-341.326h-1024v341.326z" />
<glyph unicode="&#xe922;" d="M0 960h1024v-1024h-1024v1024z" />
<glyph unicode="&#xe923;" d="M448 960h128v-1024h-128v1024z" />
<glyph unicode="&#xe924;" d="M0 512h1024v-128h-1024v128z" />
<glyph unicode="&#xe925;" d="M0 960h1024v-1024h-1024v1024z" />
<glyph unicode="&#xe926;" d="M0 832h1024v-128h-1024v128z" />
<glyph unicode="&#xe927;" d="M0 576h1024v-128h-1024v128z" />
<glyph unicode="&#xe928;" d="M0 320h1024v-128h-1024v128z" />
<glyph unicode="&#xe929;" d="M0 64h1024v-128h-1024v128z" />
<glyph unicode="&#xe92a;" d="M0 960h512v-551.38h-512v551.38z" />
<glyph unicode="&#xe92b;" d="M103.036 729.364l-11.188-34.422h-36.196l29.286-21.268-11.188-34.424 29.286 21.268 29.274-21.268-11.19 34.424 29.286 21.268h-36.194z" />
<glyph unicode="&#xe92c;" d="M114.212 570.71l-11.176 34.422-11.188-34.422h-36.196l29.286-21.268-11.188-34.422 29.286 21.266 29.274-21.266-11.19 34.422 29.286 21.268z" />
<glyph unicode="&#xe92d;" d="M103.036 853.596l-11.188-34.424h-36.196l29.286-21.266-11.188-34.424 29.286 21.268 29.274-21.268-11.19 34.424 29.286 21.266h-36.194z" />
<glyph unicode="&#xe92e;" d="M256.006 729.364l-11.188-34.422h-36.196l29.286-21.268-11.188-34.424 29.286 21.268 29.274-21.268-11.19 34.424 29.288 21.268h-36.196z" />
<glyph unicode="&#xe92f;" d="M267.182 570.71l-11.176 34.422-11.188-34.422h-36.196l29.286-21.268-11.188-34.422 29.286 21.266 29.274-21.266-11.19 34.422 29.288 21.268z" />
<glyph unicode="&#xe930;" d="M420.152 570.71l-11.174 34.422-11.19-34.422h-36.194l29.286-21.268-11.19-34.422 29.288 21.266 29.272-21.266-11.188 34.422 29.286 21.268z" />
<glyph unicode="&#xe931;" d="M408.978 729.364l-11.19-34.422h-36.194l29.286-21.268-11.19-34.424 29.288 21.268 29.272-21.268-11.188 34.424 29.286 21.268h-36.196z" />
<glyph unicode="&#xe932;" d="M256.006 853.596l-11.188-34.424h-36.196l29.286-21.266-11.188-34.424 29.286 21.268 29.274-21.268-11.19 34.424 29.288 21.266h-36.196z" />
<glyph unicode="&#xe933;" d="M408.978 853.596l-11.19-34.424h-36.194l29.286-21.266-11.19-34.424 29.288 21.268 29.272-21.268-11.188 34.424 29.286 21.266h-36.196z" />
<glyph unicode="&#xe934;" d="M0 960h1024v-1024h-1024v1024z" />
<glyph unicode="&#xe935;" d="M393.282 960v-1024h-393.282v1024z" />
<glyph unicode="&#xe936;" d="M585.282 448c0-106.039-85.961-192-192-192s-192 85.961-192 192c0 106.039 85.961 192 192 192s192-85.961 192-192z" />
<glyph unicode="&#xe937;" d="M285.276 544v-120c0-59.646 48.356-108 108-108s108 48.356 108 108v120h-216z" />
<glyph unicode="&#xe938;" d="M393.276 388c-19.85 0-36 16.15-36 36v48.002h72v-48.002c0-19.85-16.15-36-36-36z" />
<glyph unicode="&#xe939;" d="M0 960h1024v-1024h-1024v1024z" />
<glyph unicode="&#xe93a;" d="M0 960h1024v-341.326h-1024v341.326z" />
<glyph unicode="&#xe93b;" d="M0 277.326h1024v-341.326h-1024v341.326z" />
<glyph unicode="&#xe93c;" d="M0 959.988h1024v-1023.978h-1024v1023.978z" />
<glyph unicode="&#xe93d;" d="M0 960h1024v-341.326h-1024v341.326z" />
<glyph unicode="&#xe93e;" d="M0 277.326h1024v-341.326h-1024v341.326z" />
</font>
</defs>
</svg>
